<?xml version="1.0" standalone="no"?>
<!DOCTYPE svg PUBLIC "-//W3C//DTD SVG 1.1//EN" "http://www.w3.org/Graphics/SVG/1.1/DTD/svg11.dtd" >
<svg xmlns="http://www.w3.org/2000/svg">
<metadata></metadata>
<defs>
<font id="digital_dream_fat_skewregular" horiz-adv-x="1638" >
<font-face units-per-em="2048" ascent="1638" descent="-410" />
<missing-glyph horiz-adv-x="500" />
<glyph horiz-adv-x="0" />
<glyph unicode="&#xd;" />
<glyph unicode=" " />
<glyph unicode="!" d="M487 -174q8 72 58.5 122t120.5 50q72 0 112.5 -56.5t30.5 -127.5q-8 -68 -59 -122t-119 -54q-74 0 -113 57t-31 131zM653 719l82 659l117 125l96 -131l-82 -661l-116 -125z" />
<glyph unicode="&#x22;" d="M23 1157l36 236l125 108l103 -115l-35 -235l-125 -109zM584 1157l37 236l124 108l103 -115l-35 -235l-125 -109z" />
<glyph unicode="#" d="M-70 -135l93 657l106 103l-78 96l92 657l131 125l107 -131l-88 -635h348l90 641l131 125l107 -131l-88 -635h348l90 645l131 125l109 -131l-95 -661l-106 -103l80 -96l-92 -659l-132 -123l-108 131l90 633h-348l-90 -641l-131 -123l-109 131l90 633h-348l-90 -641 l-131 -123z" />
<glyph unicode="$" d="M12 -242l140 119h370l86 621h-362l-115 120l4 5l-80 98l92 661l129 125l5 -2l108 94h389l88 -92l109 92h387l115 -120l-140 -121h-370l-86 -619h362l115 -123l-4 -2l80 -100l-93 -661l-129 -125l-4 4l-108 -94h-389l-88 92l-109 -92h-387zM297 739h346l84 619h-346z M762 -123h346l84 621h-346z" />
<glyph unicode="%" d="M57 721l93 661l129 125l2 -2l110 94h387l115 -120l-4 -4l80 -99l-56 -391l349 424h106l-37 -266l-334 -404h244l115 -123l-4 -2l80 -100l-93 -661l-129 -125l-2 4l-110 -94h-387l-115 120l4 4l-80 99l55 389l-348 -422h-106l37 266l334 404h-244l-115 120l4 5zM297 739 h346l84 619h-344zM762 -123h344l86 621h-346z" />
<glyph unicode="&#x26;" d="M-70 -139l93 661l104 103l-78 96l92 661l129 125l2 -2l111 94h385l115 -120l-4 -4l79 -99l-92 -661l-104 -103l78 -98l-49 -348l313 381h133l-31 -223l-366 -447h272l115 -121l-140 -118h-387l-86 92l-108 -92h-385l-115 120l4 4zM170 -123h344l86 621h-344zM289 739h344 l86 619h-344z" />
<glyph unicode="'" d="M641 1157l29 236l98 108l80 -115l-29 -235l-98 -109z" />
<glyph unicode="(" d="M549 -139l88 661l104 103l-77 96l90 661l125 125l4 -2l106 94h377l111 -120l-136 -121h-360l-86 -643l-104 -103l77 -98l-86 -637h353l110 -121l-135 -118h-377l-110 120l4 4z" />
<glyph unicode=")" d="M12 -242l135 119h361l86 645l104 103l-77 96l86 637h-353l-110 123l135 118h377l110 -120l-4 -4l78 -99l-88 -661l-104 -103l77 -98l-90 -661l-125 -125l-4 4l-106 -94h-377z" />
<glyph unicode="*" d="M125 -164l37 262l373 451h131l-31 -223l-406 -490h-104zM307 1147l35 254h98l275 -500l-29 -213h-127zM774 334l29 215h127l252 -459l-35 -254h-98zM823 688l31 223l406 490h104l-37 -262l-373 -451h-131z" />
<glyph unicode="+" d="M139 618l137 119h367l88 641l129 125l107 -131l-88 -635h358l113 -121l-138 -118h-366l-88 -641l-129 -123l-107 131l88 633h-358z" />
<glyph unicode="," d="M606 -219q8 66 53.5 108.5t110.5 42.5q63 0 101 -48t30 -111q-8 -70 -63 -158q-62 -100 -115 -100q-59 0 -94 108q-31 94 -23 158z" />
<glyph unicode="-" d="M139 618l137 84h383l86 -65l109 65h383l113 -84l-138 -83h-383l-86 65l-108 -65h-383z" />
<glyph unicode="." d="M596 -209q10 61 56 101t110 40q61 0 100 -44t31 -105q-8 -59 -56.5 -102t-107.5 -43q-63 0 -103 45t-30 108z" />
<glyph unicode="/" d="M125 -164l37 262l373 451h131l-31 -223l-406 -490h-104zM823 688l31 223l406 490h104l-37 -262l-373 -451h-131z" />
<glyph unicode="0" d="M-70 -139l93 661l108 103l-80 96l92 661l131 125l2 -2l111 94h391l88 -92l109 92h391l115 -120l-2 -2l80 -97l-93 -665l-108 -103l80 -98l-92 -661l-132 -125l-2 4l-110 -94h-391l-88 92l-109 -92h-391l-115 120l4 4zM182 612l80 -98l-49 -348l317 381h136l-33 -223 l-369 -447h275l88 -92l108 92h375l90 645l107 103l-80 96l49 350l-318 -383h-135l33 225l369 445h-275l-88 94l-108 -94h-375l-90 -643z" />
<glyph unicode="1" d="M12 -242l138 119h368l88 645l105 103l-78 96l88 637h-361l-112 123l137 118h385l113 -120l-4 -4l79 -99l-92 -661l-104 -103l78 -98l-88 -637h360l113 -121l-138 -118h-385l-86 92l-106 -92h-385z" />
<glyph unicode="2" d="M-70 -139l93 661l131 125l4 -2l110 94h391l89 -94l108 94h373l86 619h-365l-88 94l-108 -94h-392l-114 123l139 118h391l88 -92l109 92h391l115 -120l-2 -2l80 -97l-93 -665l-131 -125l-4 2l-110 -94h-390l-88 94l-110 -94h-373l-86 -621h365l88 -92l108 92h391l115 -121 l-139 -118h-391l-88 92l-109 -92h-391l-115 120l4 4z" />
<glyph unicode="3" d="M12 -242l140 119h389l88 -92l108 92h373l86 621h-362l-115 120l139 121h373l86 619h-365l-88 94l-108 -94h-389l-115 123l139 118h389l88 -92l109 92h389l115 -122l78 -97l-93 -665l-106 -103l78 -98l-92 -661l-129 -125l-5 4l-110 -94h-389l-88 92l-109 -92h-389z" />
<glyph unicode="4" d="M57 721l93 657l129 125l108 -131l-90 -635h365l88 -92l108 92h373l90 645l129 125l109 -131l-93 -661l-106 -103l78 -96l-92 -659l-129 -123l-109 131l88 633h-362l-89 94l-108 -94h-389l-115 120l4 5z" />
<glyph unicode="5" d="M12 -242l140 119h389l86 -92l108 92h373l84 621h-363l-86 94l-108 -94h-389l-115 120l4 5l-80 98l92 661l129 125l5 -2l108 94h389l88 -92l109 92h387l115 -120l-140 -121h-389l-86 94l-108 -94h-373l-84 -619h362l86 -94l109 94h389l115 -123l-4 -2l80 -100l-93 -661 l-129 -125l-4 4l-108 -94h-389l-88 92l-109 -92h-387z" />
<glyph unicode="6" d="M-70 -139l93 661l106 103l-78 96l92 661l129 125l4 -2l111 94h389l88 -92l109 92h389l115 -120l-140 -121h-389l-88 94l-108 -94h-373l-86 -619h362l88 -94l109 94h391l115 -123l-4 -2l80 -100l-93 -661l-131 -125l-2 4l-110 -94h-389l-88 92l-109 -92h-389l-115 120l4 4 zM172 -123h365l88 -92l108 92h373l86 621h-365l-88 94l-108 -94h-373z" />
<glyph unicode="7" d="M113 -164l34 264l375 453h133l-30 -225l-408 -492h-104zM242 1481l139 118h387l86 -92l109 92h387l112 -120l-110 -95l-33 -239l-375 -453h-131l31 226l366 442h-272l-88 92l-109 -92h-385z" />
<glyph unicode="8" d="M-70 -139l93 661l108 103l-80 96l92 661l131 125l2 -2l111 94h391l88 -92l109 92h391l115 -120l-2 -2l80 -97l-93 -665l-108 -103l80 -98l-92 -661l-132 -125l-2 4l-110 -94h-391l-88 92l-109 -92h-391l-115 120l4 4zM174 -123h365l88 -92l108 92h375l86 621h-365l-88 94 l-110 -94h-373zM293 739h366l89 -94l108 94h373l86 619h-365l-88 94l-108 -94h-375z" />
<glyph unicode="9" d="M12 -242l140 119h389l88 -92l108 92h373l86 621h-362l-89 94l-108 -94h-391l-115 120l4 5l-80 98l92 661l132 125l2 -2l110 94h389l88 -92l109 92h389l115 -122l78 -97l-93 -665l-106 -103l78 -98l-92 -661l-129 -125l-5 4l-110 -94h-389l-88 92l-109 -92h-389zM297 739 h365l88 -94l108 94h373l86 619h-365l-88 94l-108 -94h-373z" />
<glyph unicode=":" d="M559 375q8 70 55.5 118t114.5 48q70 0 109 -53.5t30 -122.5q-8 -66 -58.5 -118t-113.5 -52q-70 0 -107.5 55t-29.5 125zM621 872q8 66 58 117t114 51q70 0 107.5 -54t29.5 -124q-8 -72 -54 -119t-116 -47t-109 53.5t-30 122.5z" />
<glyph unicode=";" d="M567 367q8 70 56.5 119t115.5 49q68 0 107 -55.5t31 -123.5q-8 -70 -66 -170q-66 -114 -121 -114q-61 0 -98 121q-33 106 -25 174zM629 870q8 68 58 119t116 51q68 0 106.5 -56t30.5 -124q-8 -70 -56 -119t-116 -49q-70 0 -110 54.5t-29 123.5z" />
<glyph unicode="&#x3c;" d="M817 334l27 215h117l233 -459l-33 -254h-90zM862 688l29 223l375 490h96l-33 -262l-344 -451h-123z" />
<glyph unicode="=" d="M111 440l137 109h385l86 -86l108 86h385l113 -111l-137 -108h-385l-88 84l-107 -84h-385zM164 799l137 108h385l88 -84l107 84h385l112 -110l-137 -109h-385l-86 84l-108 -84h-386z" />
<glyph unicode="&#x3e;" d="M127 -164l33 262l344 451h123l-29 -223l-375 -490h-96zM295 1147l33 254h90l254 -500l-27 -213h-117z" />
<glyph unicode="?" d="M256 1481l139 118h385l88 -92l107 92h385l84 -88v2l10 -14l21 -20l-2 -2l77 -97l-92 -663l-129 -125l-2 2l-108 -94h-371l-88 -641l-129 -125l-107 131l92 659l129 125l3 -2l108 94h369l86 619h-361l-86 92l-108 -92h-385z" />
<glyph unicode="@" d="M-70 -139l93 661l108 103l-80 96l92 661l131 125l2 -2l111 94h391l88 -92l109 92h391l115 -120l-2 -2l80 -97l-93 -665l-108 -103l80 -98l-92 -661l-132 -125l-2 4l-110 -94h-391l-88 92l-109 -92h-391l-115 120l4 4zM213 166l276 332h-229zM264 -123h258l51 373z M293 739h235l-188 340zM463 1358l211 -381l53 381h-264zM762 -123h264l-211 383zM915 985l310 373h-258zM961 498l188 -340l47 340h-235zM999 739h230l47 332z" />
<glyph unicode="A" d="M-63 -135l92 655l131 125l2 -4l82 72l28 196l410 492h104l-34 -264l-336 -402h246l88 -92l108 92h260l-227 412l35 254h100l277 -500l-27 -196l86 -91l-4 -2l80 -98l-92 -657l-129 -123l-109 131l88 633h-362l-89 92l-108 -92h-373l-90 -641l-129 -123z" />
<glyph unicode="B" d="M-70 -139l93 661l108 103l-80 96l92 661l131 125l2 -2l111 94h391l88 -92l109 92h391l115 -120l-2 -2l80 -97l-93 -665l-108 -103l80 -98l-92 -661l-132 -125l-2 4l-110 -94h-391l-88 92l-109 -92h-391l-115 120l4 4zM174 -123h365l88 -92l108 92h375l86 621h-365l-88 94 l-110 -94h-373zM293 739h366l89 -94l108 94h373l86 619h-365l-88 94l-108 -94h-375z" />
<glyph unicode="C" d="M-70 -139l93 661l106 103l-78 96l92 661l129 125l4 -2l111 94h389l88 -92l109 92h389l115 -120l-140 -121h-389l-88 94l-108 -94h-373l-90 -643l-107 -103l78 -98l-88 -637h365l88 -92l108 92h389l115 -121l-139 -118h-389l-88 92l-109 -92h-389l-115 120l4 4z" />
<glyph unicode="D" d="M-70 -139l93 661l106 103l-80 96l92 661l129 125l4 -2l109 94h387l115 -120l-140 -121h-370l-88 -643l-107 -103l78 -98l-88 -637h362l115 -121l-139 -118h-387l-115 120l4 4zM696 -172l37 266l375 453h133l-31 -223l-409 -496h-105zM879 1153l36 256h99l276 -504 l-30 -217h-127z" />
<glyph unicode="E" d="M-70 -139l93 661l106 103l-78 96l92 661l129 125l4 -2l111 94h389l88 -92l109 92h389l115 -120l-140 -121h-389l-88 94l-108 -94h-373l-86 -619h362l88 -94l109 94h391l115 -123l-141 -118h-390l-88 94l-108 -94h-373l-86 -621h365l88 -92l108 92h389l115 -121l-139 -118 h-389l-88 92l-109 -92h-389l-115 120l4 4z" />
<glyph unicode="F" d="M-76 -135l90 659l107 103l-78 96l92 661l129 125l4 -4l111 94h389l88 -92l109 92h389l114 -120l-139 -119h-389l-88 92l-109 -92h-372l-86 -619h364l86 -94l109 94h391l115 -120l-140 -121h-391l-88 94l-108 -94h-373l-88 -641l-131 -125z" />
<glyph unicode="G" d="M-70 -139l93 661l106 103l-78 96l92 661l129 125l4 -2l111 94h389l88 -92l109 92h389l115 -120l-140 -121h-389l-88 94l-108 -94h-373l-90 -643l-107 -103l78 -98l-88 -637h365l88 -92l108 92h373l86 621h-365l-114 120l139 121h391l115 -123l-4 -2l80 -100l-93 -661 l-131 -125l-2 4l-110 -94h-389l-88 92l-109 -92h-389l-115 120l4 4z" />
<glyph unicode="H" d="M-70 -135l93 657l106 103l-78 96l92 657l131 125l107 -131l-88 -635h364l88 -92l111 92h373l90 645l131 125l109 -131l-95 -661l-106 -103l80 -96l-92 -659l-132 -123l-108 131l90 633h-367l-88 94l-108 -94h-373l-90 -641l-131 -123z" />
<glyph unicode="I" d="M12 -242l140 119h370l90 645l107 103l-80 96l88 637h-362l-115 123l139 118h389l88 -92l109 92h387l115 -120l-140 -121h-370l-90 -643l-107 -103l80 -98l-88 -637h362l115 -121l-139 -118h-389l-88 92l-109 -92h-387z" />
<glyph unicode="J" d="M-70 -139l93 661l131 125l108 -133l-88 -637h365l88 -92l108 92h375l90 645l107 103l-80 96l88 637h-365l-114 123l139 118h391l115 -120l-2 -2l80 -97l-93 -665l-108 -103l80 -98l-92 -661l-132 -125l-2 4l-110 -94h-391l-88 92l-109 -92h-391l-115 120l4 4z" />
<glyph unicode="K" d="M-70 -135l93 657l106 103l-78 96l90 657l131 125l107 -131l-88 -635h362l115 -121l-139 -118h-371l-90 -641l-129 -123zM768 334l31 215h127l254 -461l-35 -256h-101zM817 688l33 223l407 494h107l-37 -264l-375 -453h-135z" />
<glyph unicode="L" d="M-61 -139l92 659l104 103l-78 96l93 659l129 125l106 -131l-92 -661l-105 -101l78 -98l-88 -635h361l86 -92l108 92h385l115 -121l-139 -118h-385l-88 92l-107 -92h-385l-115 120l4 4z" />
<glyph unicode="M" d="M-70 -135l93 657l106 103l-78 96l92 657l131 125l80 -98h82l279 -502l-31 -215h-127l-217 389l-51 -362l-107 -103l80 -96l-92 -659l-131 -123zM823 688l33 223l410 494h75l109 102l109 -131l-95 -661l-106 -103l80 -96l-92 -659l-132 -123l-108 131l92 657l109 103 l-80 96l49 348l-318 -381h-135z" />
<glyph unicode="N" d="M-70 -135l93 657l106 103l-78 96l92 657l131 125l80 -98h82l279 -502l-31 -215h-127l-217 389l-51 -362l-107 -103l80 -96l-92 -659l-131 -123zM774 334l31 215h127l217 -389l49 362l109 103l-80 96l92 661l131 125l109 -131l-95 -661l-106 -103l80 -96l-92 -659 l-132 -123l-81 98h-80z" />
<glyph unicode="O" d="M-70 -139l93 661l108 103l-80 96l92 661l131 125l2 -2l111 94h391l88 -92l109 92h391l115 -120l-2 -2l80 -97l-93 -665l-108 -103l80 -98l-92 -661l-132 -125l-2 4l-110 -94h-391l-88 92l-109 -92h-391l-115 120l4 4zM174 -123h365l88 -92l108 92h375l90 645l107 103 l-80 96l88 637h-365l-88 94l-108 -94h-375l-90 -643l-107 -103l80 -98z" />
<glyph unicode="P" d="M-76 -135l92 659l107 103l-80 96l92 661l131 125l2 -4l111 94h391l88 -92l109 92h391l84 -88v2l10 -14l21 -20v-2l77 -97l-92 -663l-131 -125l-2 2l-113 -94h-389l-88 94l-110 -94h-373l-90 -641l-131 -125zM285 741h366l88 -94l109 94h373l88 619h-367l-88 92l-109 -92 h-374z" />
<glyph unicode="Q" d="M-70 -139l93 661l108 103l-80 96l92 661l131 125l2 -2l111 94h391l88 -92l109 92h391l115 -120l-2 -2l80 -97l-93 -665l-108 -103l80 -98l-92 -661l-132 -125l-2 4l-110 -94h-391l-88 92l-109 -92h-391l-115 120l4 4zM174 -123h365l88 -92l108 92h291l-252 455l31 215 h127l217 -389l51 364l107 103l-80 96l88 637h-365l-88 94l-108 -94h-375l-90 -643l-107 -103l80 -98z" />
<glyph unicode="R" d="M-76 -135l92 659l107 103l-80 96l92 661l131 125l2 -4l111 94h391l88 -92l109 92h391l84 -88v2l10 -14l21 -20v-2l77 -97l-92 -663l-131 -125l-2 2l-113 -94h-260l228 -412l-35 -256h-101l-278 504l29 194l-60 64l-110 -94h-373l-90 -641l-131 -125zM285 741h366l88 -94 l109 94h373l88 619h-367l-88 92l-109 -92h-374z" />
<glyph unicode="S" d="M12 -242l140 119h389l86 -92l108 92h373l84 621h-363l-86 94l-108 -94h-389l-115 120l4 5l-80 98l92 661l129 125l5 -2l108 94h389l88 -92l109 92h387l115 -120l-140 -121h-389l-86 94l-108 -94h-373l-84 -619h362l86 -94l109 94h389l115 -123l-4 -2l80 -100l-93 -661 l-129 -125l-4 4l-108 -94h-389l-88 92l-109 -92h-387z" />
<glyph unicode="T" d="M256 1481l137 118h385l86 -92l107 92h385l112 -120l-137 -119h-366l-91 -643l-104 -103l78 -96l-90 -659l-129 -125l-105 131l90 659l105 103l-78 96l88 637h-360z" />
<glyph unicode="U" d="M-61 -139l92 659l106 103l-78 96l93 659l131 125l106 -131l-92 -661l-107 -101l80 -98l-90 -635h367l88 -92l108 92h373l90 643l107 103l-78 96l92 663l131 125l109 -131l-94 -665l-107 -101l80 -98l-92 -659l-131 -125l-2 4l-111 -94h-391l-88 92l-111 -92h-389 l-115 120l2 4z" />
<glyph unicode="V" d="M51 723l92 657l129 123l109 -131l-92 -657l-131 -123zM186 336l29 215h127l256 -461l-35 -254h-100zM700 -164l37 264l377 451h133l-30 -223l-410 -492h-107zM1223 723l92 661l129 123l108 -131l-92 -661l-131 -123z" />
<glyph unicode="W" d="M-70 -135l93 657l106 103l-78 96l92 657l131 125l107 -131l-92 -657l-107 -103l80 -96l-49 -348l317 381h136l-33 -225l-412 -492h-78l-104 -98zM774 334l31 215h127l217 -389l49 362l109 103l-80 96l92 661l131 125l109 -131l-95 -661l-106 -103l80 -96l-92 -659 l-132 -123l-81 98h-80z" />
<glyph unicode="X" d="M125 -164l37 262l373 451h131l-31 -223l-406 -490h-104zM307 1147l35 254h98l275 -500l-29 -213h-127zM774 334l29 215h127l252 -459l-35 -254h-98zM823 688l31 223l406 490h104l-37 -262l-373 -451h-131z" />
<glyph unicode="Y" d="M326 1147l34 254h97l272 -500l-31 -215h-123zM539 -135l90 655l127 125l104 -131l-90 -657l-127 -123zM836 686l30 223l400 492h104l-37 -264l-368 -451h-129z" />
<glyph unicode="Z" d="M12 -242l111 97l35 239l374 453h134l-31 -223l-369 -447h275l86 -92l108 92h389l115 -121l-139 -118h-389l-88 92l-109 -92h-387zM250 1481l139 118h389l88 -92l109 92h387l115 -120l-111 -97l-35 -239l-375 -455h-133l31 225l369 445h-275l-86 94l-108 -94h-389z" />
<glyph unicode="[" d="M549 -139l88 661l104 103l-77 96l90 661l125 125l4 -2l106 94h377l111 -120l-136 -121h-360l-86 -643l-104 -103l77 -98l-86 -637h353l110 -121l-135 -118h-377l-110 120l4 4z" />
<glyph unicode="\" d="M319 1147l35 254h95l268 -500l-29 -213h-123zM772 334l29 215h123l245 -459l-34 -254h-95z" />
<glyph unicode="]" d="M12 -242l135 119h361l86 645l104 103l-77 96l86 637h-353l-110 123l135 118h377l110 -120l-4 -4l78 -99l-88 -661l-104 -103l77 -98l-90 -661l-125 -125l-4 4l-106 -94h-377z" />
<glyph unicode="^" d="M188 733l31 209l402 459h102l-37 -246l-367 -422h-131zM823 1163l35 238h98l271 -467l-29 -201h-125z" />
<glyph unicode="_" d="M139 -279l137 84h383l86 -65l109 65h383l113 -84l-138 -83h-383l-86 65l-108 -65h-383z" />
<glyph unicode="`" d="M256 1163l31 238h86l235 -467l-24 -201h-109z" />
<glyph unicode="a" d="M-63 -135l92 655l131 125l2 -4l82 72l28 196l410 492h104l-34 -264l-336 -402h246l88 -92l108 92h260l-227 412l35 254h100l277 -500l-27 -196l86 -91l-4 -2l80 -98l-92 -657l-129 -123l-109 131l88 633h-362l-89 92l-108 -92h-373l-90 -641l-129 -123z" />
<glyph unicode="b" d="M-70 -139l93 661l108 103l-80 96l92 661l131 125l2 -2l111 94h391l88 -92l109 92h391l115 -120l-2 -2l80 -97l-93 -665l-108 -103l80 -98l-92 -661l-132 -125l-2 4l-110 -94h-391l-88 92l-109 -92h-391l-115 120l4 4zM174 -123h365l88 -92l108 92h375l86 621h-365l-88 94 l-110 -94h-373zM293 739h366l89 -94l108 94h373l86 619h-365l-88 94l-108 -94h-375z" />
<glyph unicode="c" d="M-70 -139l93 661l106 103l-78 96l92 661l129 125l4 -2l111 94h389l88 -92l109 92h389l115 -120l-140 -121h-389l-88 94l-108 -94h-373l-90 -643l-107 -103l78 -98l-88 -637h365l88 -92l108 92h389l115 -121l-139 -118h-389l-88 92l-109 -92h-389l-115 120l4 4z" />
<glyph unicode="d" d="M-70 -139l93 661l106 103l-80 96l92 661l129 125l4 -2l109 94h387l115 -120l-140 -121h-370l-88 -643l-107 -103l78 -98l-88 -637h362l115 -121l-139 -118h-387l-115 120l4 4zM696 -172l37 266l375 453h133l-31 -223l-409 -496h-105zM879 1153l36 256h99l276 -504 l-30 -217h-127z" />
<glyph unicode="e" d="M-70 -139l93 661l106 103l-78 96l92 661l129 125l4 -2l111 94h389l88 -92l109 92h389l115 -120l-140 -121h-389l-88 94l-108 -94h-373l-86 -619h362l88 -94l109 94h391l115 -123l-141 -118h-390l-88 94l-108 -94h-373l-86 -621h365l88 -92l108 92h389l115 -121l-139 -118 h-389l-88 92l-109 -92h-389l-115 120l4 4z" />
<glyph unicode="f" d="M-76 -135l90 659l107 103l-78 96l92 661l129 125l4 -4l111 94h389l88 -92l109 92h389l114 -120l-139 -119h-389l-88 92l-109 -92h-372l-86 -619h364l86 -94l109 94h391l115 -120l-140 -121h-391l-88 94l-108 -94h-373l-88 -641l-131 -125z" />
<glyph unicode="g" d="M-70 -139l93 661l106 103l-78 96l92 661l129 125l4 -2l111 94h389l88 -92l109 92h389l115 -120l-140 -121h-389l-88 94l-108 -94h-373l-90 -643l-107 -103l78 -98l-88 -637h365l88 -92l108 92h373l86 621h-365l-114 120l139 121h391l115 -123l-4 -2l80 -100l-93 -661 l-131 -125l-2 4l-110 -94h-389l-88 92l-109 -92h-389l-115 120l4 4z" />
<glyph unicode="h" d="M-70 -135l93 657l106 103l-78 96l92 657l131 125l107 -131l-88 -635h364l88 -92l111 92h373l90 645l131 125l109 -131l-95 -661l-106 -103l80 -96l-92 -659l-132 -123l-108 131l90 633h-367l-88 94l-108 -94h-373l-90 -641l-131 -123z" />
<glyph unicode="i" d="M12 -242l140 119h370l90 645l107 103l-80 96l88 637h-362l-115 123l139 118h389l88 -92l109 92h387l115 -120l-140 -121h-370l-90 -643l-107 -103l80 -98l-88 -637h362l115 -121l-139 -118h-389l-88 92l-109 -92h-387z" />
<glyph unicode="j" d="M-70 -139l93 661l131 125l108 -133l-88 -637h365l88 -92l108 92h375l90 645l107 103l-80 96l88 637h-365l-114 123l139 118h391l115 -120l-2 -2l80 -97l-93 -665l-108 -103l80 -98l-92 -661l-132 -125l-2 4l-110 -94h-391l-88 92l-109 -92h-391l-115 120l4 4z" />
<glyph unicode="k" d="M-70 -135l93 657l106 103l-78 96l90 657l131 125l107 -131l-88 -635h362l115 -121l-139 -118h-371l-90 -641l-129 -123zM768 334l31 215h127l254 -461l-35 -256h-101zM817 688l33 223l407 494h107l-37 -264l-375 -453h-135z" />
<glyph unicode="l" d="M-61 -139l92 659l104 103l-78 96l93 659l129 125l106 -131l-92 -661l-105 -101l78 -98l-88 -635h361l86 -92l108 92h385l115 -121l-139 -118h-385l-88 92l-107 -92h-385l-115 120l4 4z" />
<glyph unicode="m" d="M-70 -135l93 657l106 103l-78 96l92 657l131 125l80 -98h82l279 -502l-31 -215h-127l-217 389l-51 -362l-107 -103l80 -96l-92 -659l-131 -123zM823 688l33 223l410 494h75l109 102l109 -131l-95 -661l-106 -103l80 -96l-92 -659l-132 -123l-108 131l92 657l109 103 l-80 96l49 348l-318 -381h-135z" />
<glyph unicode="n" d="M-70 -135l93 657l106 103l-78 96l92 657l131 125l80 -98h82l279 -502l-31 -215h-127l-217 389l-51 -362l-107 -103l80 -96l-92 -659l-131 -123zM774 334l31 215h127l217 -389l49 362l109 103l-80 96l92 661l131 125l109 -131l-95 -661l-106 -103l80 -96l-92 -659 l-132 -123l-81 98h-80z" />
<glyph unicode="o" d="M-70 -139l93 661l108 103l-80 96l92 661l131 125l2 -2l111 94h391l88 -92l109 92h391l115 -120l-2 -2l80 -97l-93 -665l-108 -103l80 -98l-92 -661l-132 -125l-2 4l-110 -94h-391l-88 92l-109 -92h-391l-115 120l4 4zM174 -123h365l88 -92l108 92h375l90 645l107 103 l-80 96l88 637h-365l-88 94l-108 -94h-375l-90 -643l-107 -103l80 -98z" />
<glyph unicode="p" d="M-76 -135l92 659l107 103l-80 96l92 661l131 125l2 -4l111 94h391l88 -92l109 92h391l84 -88v2l10 -14l21 -20v-2l77 -97l-92 -663l-131 -125l-2 2l-113 -94h-389l-88 94l-110 -94h-373l-90 -641l-131 -125zM285 741h366l88 -94l109 94h373l88 619h-367l-88 92l-109 -92 h-374z" />
<glyph unicode="q" d="M-70 -139l93 661l108 103l-80 96l92 661l131 125l2 -2l111 94h391l88 -92l109 92h391l115 -120l-2 -2l80 -97l-93 -665l-108 -103l80 -98l-92 -661l-132 -125l-2 4l-110 -94h-391l-88 92l-109 -92h-391l-115 120l4 4zM174 -123h365l88 -92l108 92h291l-252 455l31 215 h127l217 -389l51 364l107 103l-80 96l88 637h-365l-88 94l-108 -94h-375l-90 -643l-107 -103l80 -98z" />
<glyph unicode="r" d="M-76 -135l92 659l107 103l-80 96l92 661l131 125l2 -4l111 94h391l88 -92l109 92h391l84 -88v2l10 -14l21 -20v-2l77 -97l-92 -663l-131 -125l-2 2l-113 -94h-260l228 -412l-35 -256h-101l-278 504l29 194l-60 64l-110 -94h-373l-90 -641l-131 -125zM285 741h366l88 -94 l109 94h373l88 619h-367l-88 92l-109 -92h-374z" />
<glyph unicode="s" d="M12 -242l140 119h389l86 -92l108 92h373l84 621h-363l-86 94l-108 -94h-389l-115 120l4 5l-80 98l92 661l129 125l5 -2l108 94h389l88 -92l109 92h387l115 -120l-140 -121h-389l-86 94l-108 -94h-373l-84 -619h362l86 -94l109 94h389l115 -123l-4 -2l80 -100l-93 -661 l-129 -125l-4 4l-108 -94h-389l-88 92l-109 -92h-387z" />
<glyph unicode="t" d="M256 1481l137 118h385l86 -92l107 92h385l112 -120l-137 -119h-366l-91 -643l-104 -103l78 -96l-90 -659l-129 -125l-105 131l90 659l105 103l-78 96l88 637h-360z" />
<glyph unicode="u" d="M-61 -139l92 659l106 103l-78 96l93 659l131 125l106 -131l-92 -661l-107 -101l80 -98l-90 -635h367l88 -92l108 92h373l90 643l107 103l-78 96l92 663l131 125l109 -131l-94 -665l-107 -101l80 -98l-92 -659l-131 -125l-2 4l-111 -94h-391l-88 92l-111 -92h-389 l-115 120l2 4z" />
<glyph unicode="v" d="M51 723l92 657l129 123l109 -131l-92 -657l-131 -123zM186 336l29 215h127l256 -461l-35 -254h-100zM700 -164l37 264l377 451h133l-30 -223l-410 -492h-107zM1223 723l92 661l129 123l108 -131l-92 -661l-131 -123z" />
<glyph unicode="w" d="M-70 -135l93 657l106 103l-78 96l92 657l131 125l107 -131l-92 -657l-107 -103l80 -96l-49 -348l317 381h136l-33 -225l-412 -492h-78l-104 -98zM774 334l31 215h127l217 -389l49 362l109 103l-80 96l92 661l131 125l109 -131l-95 -661l-106 -103l80 -96l-92 -659 l-132 -123l-81 98h-80z" />
<glyph unicode="x" d="M125 -164l37 262l373 451h131l-31 -223l-406 -490h-104zM307 1147l35 254h98l275 -500l-29 -213h-127zM774 334l29 215h127l252 -459l-35 -254h-98zM823 688l31 223l406 490h104l-37 -262l-373 -451h-131z" />
<glyph unicode="y" d="M326 1147l34 254h97l272 -500l-31 -215h-123zM539 -135l90 655l127 125l104 -131l-90 -657l-127 -123zM836 686l30 223l400 492h104l-37 -264l-368 -451h-129z" />
<glyph unicode="z" d="M12 -242l111 97l35 239l374 453h134l-31 -223l-369 -447h275l86 -92l108 92h389l115 -121l-139 -118h-389l-88 92l-109 -92h-387zM250 1481l139 118h389l88 -92l109 92h387l115 -120l-111 -97l-35 -239l-375 -455h-133l31 225l369 445h-275l-86 94l-108 -94h-389z" />
<glyph unicode="{" d="M139 618l137 121h371l88 643l129 125l2 -2l111 94h385l115 -120l-140 -121h-368l-88 -643l-107 -103l78 -98l-88 -637h362l113 -121l-137 -118h-387l-115 120l4 4l-78 99l86 637h-360z" />
<glyph unicode="|" d="M549 -135l80 657l92 103l-68 96l80 657l113 125l94 -131l-80 -659l-92 -101l68 -96l-80 -659l-113 -123z" />
<glyph unicode="}" d="M12 -242l140 119h368l88 645l107 103l-78 96l88 637h-363l-112 123l137 118h387l115 -120l-4 -4l78 -99l-86 -637h360l113 -123l-138 -118h-370l-88 -645l-129 -125l-2 4l-111 -94h-385z" />
<glyph unicode="&#xa0;" />
<glyph unicode="&#xad;" d="M139 618l137 84h383l86 -65l109 65h383l113 -84l-138 -83h-383l-86 65l-108 -65h-383z" />
<glyph unicode="&#xc6;" d="M-70 -139l93 661l131 125l2 -2l84 70l26 198l410 496h80l104 98l2 -2l111 94h389l115 -120l-140 -121h-372l-86 -619h364l115 -123l-141 -118h-373l-86 -621h364l115 -121l-139 -118h-389l-115 120l4 4l-80 99l88 637h-348l-88 -645l-131 -125zM410 739h229l47 332z" />
<glyph unicode="&#xd8;" d="M-70 -139l93 661l108 103l-80 96l92 661l131 125l2 -2l111 94h391l88 -92l109 92h391l115 -120l-2 -2l80 -97l-93 -665l-108 -103l80 -98l-92 -661l-132 -125l-2 4l-110 -94h-391l-88 92l-109 -92h-391l-115 120l4 4zM182 612l80 -98l-49 -348l317 381h136l-33 -223 l-369 -447h275l88 -92l108 92h375l90 645l107 103l-80 96l49 350l-318 -383h-135l33 225l369 445h-275l-88 94l-108 -94h-375l-90 -643z" />
<glyph unicode="&#xe6;" d="M-70 -139l93 661l131 125l2 -2l84 70l26 198l410 496h80l104 98l2 -2l111 94h389l115 -120l-140 -121h-372l-86 -619h364l115 -123l-141 -118h-373l-86 -621h364l115 -121l-139 -118h-389l-115 120l4 4l-80 99l88 637h-348l-88 -645l-131 -125zM410 739h229l47 332z" />
<glyph unicode="&#xf8;" d="M-70 -139l93 661l108 103l-80 96l92 661l131 125l2 -2l111 94h391l88 -92l109 92h391l115 -120l-2 -2l80 -97l-93 -665l-108 -103l80 -98l-92 -661l-132 -125l-2 4l-110 -94h-391l-88 92l-109 -92h-391l-115 120l4 4zM182 612l80 -98l-49 -348l317 381h136l-33 -223 l-369 -447h275l88 -92l108 92h375l90 645l107 103l-80 96l49 350l-318 -383h-135l33 225l369 445h-275l-88 94l-108 -94h-375l-90 -643z" />
<glyph unicode="&#x2000;" horiz-adv-x="799" />
<glyph unicode="&#x2001;" horiz-adv-x="1599" />
<glyph unicode="&#x2002;" horiz-adv-x="799" />
<glyph unicode="&#x2003;" horiz-adv-x="1599" />
<glyph unicode="&#x2004;" horiz-adv-x="533" />
<glyph unicode="&#x2005;" horiz-adv-x="399" />
<glyph unicode="&#x2006;" horiz-adv-x="266" />
<glyph unicode="&#x2007;" horiz-adv-x="266" />
<glyph unicode="&#x2008;" horiz-adv-x="199" />
<glyph unicode="&#x2009;" horiz-adv-x="319" />
<glyph unicode="&#x200a;" horiz-adv-x="88" />
<glyph unicode="&#x2010;" d="M139 618l137 84h383l86 -65l109 65h383l113 -84l-138 -83h-383l-86 65l-108 -65h-383z" />
<glyph unicode="&#x2011;" d="M139 618l137 84h383l86 -65l109 65h383l113 -84l-138 -83h-383l-86 65l-108 -65h-383z" />
<glyph unicode="&#x2012;" d="M139 618l137 84h383l86 -65l109 65h383l113 -84l-138 -83h-383l-86 65l-108 -65h-383z" />
<glyph unicode="&#x2013;" horiz-adv-x="1451" d="M139 618l116 84h324l72 -65l93 65h323l96 -84l-117 -83h-324l-72 65l-92 -65h-323z" />
<glyph unicode="&#x2014;" horiz-adv-x="2475" d="M139 618l232 84h647l146 -65l184 65h648l191 -84l-233 -83h-648l-146 65l-182 -65h-648z" />
<glyph unicode="&#x202f;" horiz-adv-x="319" />
<glyph unicode="&#x205f;" horiz-adv-x="399" />
<glyph unicode="&#x25fc;" horiz-adv-x="1402" d="M0 0v1403h1403v-1403h-1403z" />
</font>
</defs>
</svg>
